Intereting Posts
Многоуровневое меню-подменю-вариант bashscript (If-Else vs Switch-Case) Что означает longterm на kernel.org? Как я могу определить, почему мой вход зависает в течение 20 секунд при запуске? Использовать аргумент командной строки и переменную с помощью sed Inside Bash Script Как проверить, какой дистрибутив CentOS 7 я установил? (Минимальный или все) Только файлы VIM, только cd-каталоги Как установить гном-терминал на CentOS 7 Установите 32-битные библиотечные пакеты на 64-разрядную версию 6.2 во время установки os Активность сервера трассировки Apache для конкретного HTTP-запроса Nagios использует sendmail, новый почтовый сервер, необходимо изменить SMTP-сервер Где хранятся «заголовки» для других языков? Grep, который показывает линию рисунка и соответствующую строку Как grep строка в файле и выводить цифры рядом со строкой Разделить массив JSON на несколько файлов TFTP «put» работает с файлами в pwd, но с ошибками с абсолютными путями

возможно ли извлечение / копирование аудио из определенной части видеофайла?

Предположим, у меня есть 2-часовой фильм, и я хочу извлечь / скопировать аудио в другой файл, скажем, 5 минут между 01:25:00 и 01:30:00, есть ли способ сделать это.

Файл находится в формате .avi –

Format : AVI Format/Info : Audio Video Interleave File size : 929 MiB Duration : 2h 44mn Overall bit rate mode : Variable Overall bit rate : 790 Kbps Writing application : VirtualDubMod 1.5.4.1 (build 2178/release) Writing library : VirtualDubMod build 2178/release Video ID : 0 Format : MPEG-4 Visual Format profile : Advanced Simple@L5 Format settings, BVOP : 1 Format settings, QPel : No Format settings, GMC : No warppoints Format settings, Matrix : Custom Codec ID : XVID Codec ID/Hint : XviD Duration : 2h 44mn Bit rate : 662 Kbps Width : 672 pixels Height : 288 pixels Display aspect ratio : 2.35:1 Frame rate : 23.976 (23976/1000) fps Color space : YUV Chroma subsampling : 4:2:0 Bit depth : 8 bits Scan type : Progressive Compression mode : Lossy Bits/(Pixel*Frame) : 0.143 Stream size : 778 MiB (84%) Writing library : XviD 1.2.1 (UTC 2008-12-04) Audio ID : 1 Format : MPEG Audio Format version : Version 1 Format profile : Layer 3 Mode : Joint stereo Mode extension : MS Stereo Codec ID : 55 Codec ID/Hint : MP3 Duration : 2h 44mn Bit rate mode : Variable Bit rate : 115 Kbps Nominal bit rate : 128 Kbps Channel(s) : 2 channels Sampling rate : 48.0 KHz Compression mode : Lossy Stream size : 136 MiB (15%) Alignment : Aligned on interleaves Interleave, duration : 24 ms (0.58 video frame) Interleave, preload duration : 485 ms Writing library : LAME3.98r Encoding settings : -mj -V 4 -q 2 -lowpass 17 --abr 128 

Вы пробовали ffmpeg ? Что-то вроде

 ffmpeg -vn \ # no video -ss 01:25:00 \ # start offset -t 300 \ # duration -i foo.avi bar.mp3 

может сделать трюк.